Jump to content
Search In
  • More options...
Find results that contain...
Find results in...

ucahmetuc

Members
  • Content Count

    27
  • Joined

  • Last visited

Community Reputation

0 Neutral
  1. Sword Art Online tutunca bu tarz da moda oldu galiba. her gecen gun benzer anime sayisi artiyor. Ceviri icin tesekkurler...
  2. Öncelikle SnK'ya 10 üzerinden 10 verdiğimi belirtmek isterim. puanlama yaparken de belirli kriterlerim olduğunu ve hiç bir zaman kafama göre hadi "buna 10 vereyim", "şuna 5 vereyim" demediğimi bilmenizi isterim. çünkü böyle yapıldığında serilere objektif yaklaşılmadığı kanaatindeyim. kriterlerime gelince bunlar: Konu, islenis, Muzik&Seslendirme, Cizim, Karakterler, Sonu olmak üzere 6 adet. aşağıda da bunları kısaca açıklayarak kendi puanlarımı belirteceğim. yorumlarıma, puanlamalarıma isteyen katılır isteyen katılmaz. zevk, renk meselesi sonuçta. o yüzden "peeeh sen buna 9 vermişin ama bence bu 1 puan bile etmez" gibi gereksiz yorumlar yapmamanızı rica ediyorum. laf edecekseniz şahsi puanlamalara değil, global puanlamalara laf edin -ki kendisi myanimelistte de 8,95 almış olup top listte 9. sıradadır :D - KONU, İŞLENİŞ aslına bakarsanız konusu öyle aman aman birşey değil. yinede ayrıntılar ve kurgusal olarak falan güzel planlamışlar. bu sebeple -birçok animedeki rezalet konularla da karşılaştırırsam- benden 7 yada 8 alır. işlenişe geçersem: ahh o işleniş yok mu, sürekli esen bir kasvet havası ve bol bol gerilim... işte snk'nın alıp yürümesinin en temel sebebi bu. daha ilk bölümden aksiyonun içine giriyoruz.. dediğim gibi, konu basit olabilir ancak kilit noktaları genellikle bölüm sonlarına bırakarak çoğu bölümün sonunda hop oturup hop kalkarken bir yandan da ufaktan dumur oluyoruz. Çizim kalitesini de göze aldığımızda seri akıcılık konusunda bence gayet normaldi. Ayrıca, bu serinin akıcılığına yavaş diyen arkadaşların Naruto'ya ya da Bleach'e göz gezdirmesini öneririm. Bir bakışla, bir flashback'le 1 bölüm geçirdikleri oluyor :D Puanlarım Konuya:8 İşlenişe:10+ MÜZİK, SESLENDİRME ortam müzikleri olsun çevresel sesler olsun bence çok iyi seçilmiş. kişi seslendirmeleri de bence mükemmel. 1. bölümün sonlarında geçen konuşmalardaki duygusallık seriyi laf olsun diye izlemeyen herkesin gözlerini dolu dolu yapmıştır eminim.. sadece 2. opening müziği çok alakasız olduğu için 1 puan kırıyorum. Puanım 9 ÇİZİM peşin peşin söyleyeyim, çizimlere laf edenler (bence) çarpılır. çoğu sahnelerden kare alıp wallpaper niyetine kullanabilirsiniz bile.. hele bir de narutonun çizimleriyle kıyaslarsak.... :D Puanım 10 KARAKTERLER -birkaç karakter hariç- laf olsun diye konmuş karakter göremedim seride. hepsinin kendine has kişiliği var, farklı alanlarda sivriliyorlar ve konu akışına uygun olarak oluşturulmuşlar...O yüzden burada puan kıracak bir durum olmadığından, Puanım 10 SONU sezon sonu bence gayet güzel bitti. Puanım 10 Totale baktığımızda: Konu:8, islenis:10, Muzik&Seslendirme:9, Cizim:10, Karakterler:10, Sonu:10, TOPLAM:9,5 son olarak, ilk başta da dediğim gibi bunlar benim verdiğim puanlar. isteyen 0da verebilir 5te. ama serilere not verirken topluluğun verdiği genel ortalamaya da bakıp bol keseden sallamamak gerektiğini düşünüyorum ben. yani bir serinin ortalaması 9 ise, ben de türünü sevdiğim halde 3 falan veriyorsam, acaba seride neleri kaçırdım, neleri anlamadım diye kendimle çelişirim açıkçası. Benden bu kadar. sayonara...
  3. arkadaşlar an iyibariyle seriyi bitirdim ancak aklımda kalan bir soru var. mümkünse cevabı bilen spoiler içinde yazabilir mi...
  4. seri için teşekkürler. ellerinize sağlık... bu arada an itibariyle birkaç dk önce linkler sağlamdı ancak şuan indirmeye kalktım ve 2 ve 3. linkler ölmüş malesef. haberiniz olsun.. edit: 9. bölümde de ingilizce altyazı ve türkçe altyazı üst üste binmiş şekilde görülüyor..
  5. son bölüm için de teşekkürler... bu sezon bence en iyi sezonuydu. şahsen kendi tarzındakilerle kıyaslarsam 8/10 veririm. umarım -kaliteyi düşürmeyecek- bir şekilde devam ettirirler. neticede- bence 4. bir sezon gelirse olay yine bu kızların arasında dönmeli. ilerleyen bölümlerde ise seriye katılacak yeni bir kızı kurtararak oğlanımız tasmasından kurtulup özgürlüğünü kazanmalı ve ilk gerçek aşkını/kız arkadaşını da elde etmiş olmalı.. edit; spoiler vermeyelim...
  6. yeni bölümler için teşekkürler. normalde kolay kolay negatif yorum yapmazdım ancak sitenin neredeyse tüm altyazıları 10/10'luk olduğu için 8. bölümün altyazısında yakıştıramadığım birkaç şeyi söylemek istiyorum: *yazılarda bazı karakterler eksik. bu çok önemli bir şey değil. olabilir.. *asıl gözüme çarpan şey ise çeviride kullanılan dilin değişmesi/kabalaşması. buna 8. bölümden yaptığım alıntıyı örnek gösterebilirim: "İyileşmişim ya la." normalde yerine göre "lan" tarzı argolar yerine göre gayet güzel oluyor ama bu yakışmamış. herkese iyi forumlar... edit: yukarıdaki yorumum sadece 8.bölümiçindir.şuan 9u izledim 10/10. tekrardan teşekkürler...
  7. mesajım büyük ihtimal gözden kaçtığı için cevap gelmedi. o yüzden dosyayı indirdim. bilgileri de ben vereyim: D:\Downloads\[AniSekai Fansub] Naruto Shippuden Road to Ninja Movie 6.mp4 General Complete name : D:\Downloads\[AniSekai Fansub] Naruto Shippuden Road to Ninja Movie 6.mp4 Format : MPEG-4 Format profile : Base Media Codec ID : isom File size : 1.52 GiB Duration : 1h 50mn Overall bit rate mode : Variable Overall bit rate : 1 972 Kbps Encoded date : UTC 2013-05-18 17:44:33 Tagged date : UTC 2013-05-18 17:44:33 Video #1 ID : 1 Format : AVC Format/Info : Advanced Video Codec Format profile : High@L4.1 Format settings, CABAC : Yes Format settings, ReFrames : 6 frames Codec ID : avc1 Codec ID/Info : Advanced Video Coding Duration : 1h 50mn Source duration : 2mn 49s Bit rate : 1 841 Kbps Maximum bit rate : 17.7 Mbps Width : 1 280 pixels Height : 720 pixels Display aspect ratio : 16:9 Frame rate mode : Constant Frame rate : 23.976 fps Color space : YUV Chroma subsampling : 4:2:0 Bit depth : 8 bits Scan type : Progressive Bits/(Pixel*Frame) : 0.083 Stream size : 1.42 GiB (93%) Source stream size : 1.42 GiB (93%) Title : ¬ Writing library : x264 core 129 r2230 1cffe9f Encoding settings : cabac=1 / ref=6 / deblock=1:1:1 / analyse=0x3:0x113 / me=umh / subme=7 / psy=1 / psy_rd=0.40:0.00 / mixed_ref=1 / me_range=32 / chroma_me=1 / trellis=1 / 8x8dct=1 / cqm=0 / deadzone=21,11 / fast_pskip=1 / chroma_qp_offset=-2 / threads=6 / lookahead_threads=1 / sliced_threads=0 / nr=0 / decimate=1 / interlaced=0 / bluray_compat=0 / constrained_intra=0 / bframes=5 / b_pyramid=2 / b_adapt=1 / b_bias=0 / direct=1 / weightb=1 / open_gop=0 / weightp=2 / keyint=240 / keyint_min=23 / scenecut=40 / intra_refresh=0 / rc_lookahead=40 / rc=2pass / mbtree=1 / bitrate=1841 / ratetol=1.0 / qcomp=0.60 / qpmin=0 / qpmax=69 / qpstep=4 / cplxblur=20.0 / qblur=0.5 / ip_ratio=1.40 / aq=1:1.00 Encoded date : UTC 2013-05-18 17:44:33 Tagged date : UTC 2013-05-18 17:45:52 mdhd_Duration : 6611783 Audio #2 ID : 2 Format : AAC Format/Info : Advanced Audio Codec Format profile : LC Codec ID : 40 Duration : 1h 50mn Bit rate mode : Variable Bit rate : 128 Kbps Maximum bit rate : 159 Kbps Channel(s) : 2 channels Channel positions : Front: L R Sampling rate : 44.1 KHz Compression mode : Lossy Stream size : 101 MiB (6%) Encoded date : UTC 2013-05-18 17:45:46 Tagged date : UTC 2013-05-18 17:45:52
  8. Emegi gecen herkesin ellerine gozlerine saglik... sizden kisa bir ricam olacak. Videonun goruntu ve ses bilgilerini de eklerseniz sevinirim.
  9. kardeş downloads bölümüne bakmanızı rica ediyorum bu konuda bir hata oldu ve linkler silindi bizde bunları ekledik ama downloadsta alternatifli halleri var birdahakine güzelce bir araştırıp bakarsanız memnun olurum [Hidden Content] Hocam zaten oraya baktiktan sonra yazma geregi duydum. FF linki haric kalan indirme linkleri de silinmis. Keza 4.bolumde de oyle. sonraki bakmadim daha...
  10. Arkadaslar oncelikle, seri icin ellerinize saglik..ancak linklerde problem var.ilk 2bolumu indirdim ancak sonrasini indiremedim. Suanda ftp de sorunlu oldugu icin mediafire fileswap vb gibi sitelerden birine upload etmenizi rica ediyorum.tesekkur ediyorum :)
  11. arkadaşlar bu sezonun işlenişi ilkine göre nasıl sizce? ben izlemek için bitmesini bekliyorum da, merakımı gidermek adına sorayım dedim... :a64:
  12. seri için çevirmen arkadaşlara teşekkürler.. bir an önce bitse de izlesem :a19: her seferinde yarım bi seriye başlayıp pişman olduğum için sabırla bitmesini bekleyeceğim bu sefer..

.

logo.png.c9c7979e5a58750c2eb2f340594d083

AniSekai Fansub | Türkçe Fansub, Türkçe Anime & Manga & Kore & Japon Dizi & Film Çeviri ve İzleme, Anime/J-Pop/k-Pop/Kore Radyo, Uzakdoğu Anime Manga Haberleri ve Oyun Dünyasına Dair Herşey

 . 

Bizi Takip Edin!

×
×
  • Create New...